Private Eyes S02E07 720p HDTV x264-KILLERS[rarbg] | reloj de Baby Driver (2017) WEBRip en linea | - Repulsion 1965 iNTERNAL BDRip x264-LiBRARiANS
layout

Hamari Adhuri Kahaani 2015 Hindi Pre-DVDRip x264-M2Tv

Torrent ID# 663463371748B41AECBC4B309E5EA0D4480FDCDB
NA
Added 2015-06-13 07:44:51   
Size 710.06 MiB in 3 files
Share
Category Video > Movies
Hamari Adhuri Kahaani 2015 Hindi Pre-DVDRip x264-M2Tv
Description
screens:
 
http://imgmak.com/Hn
 
http://imgmak.com/Hr
 
http://imgmak.com/HB

:::::::::::::::

Source: OWN M2TV

General
Complete name : Hamari Adhuri Kahaani (2015) - 1CD - PreDVD-Rip - Hindi - x264 - Mafiaking - M2Tv - ExClusive.mkv
Format : Matroska
Format version : Version 4 / Version 2
File size : 705 MiB
Duration : 2h 3mn
Overall bit rate : 798 Kbps
Movie name : Hamari Adhuri Kahaani (2015) - 1CD - PreDVD-Rip - Hindi - x264 - Mafiaking - M2Tv - ExClusive
Encoded date : UTC 2015-06-12 16:28:56

Video
ID : 1
Format : AVC
Format/Info : Advanced Video Codec
Format profile : [email protected]
Format settings, CABAC : Yes
Format settings, ReFrames : 4 frames
Codec ID : V_MPEG4/ISO/AVC
Duration : 2h 3mn
Bit rate : 716 Kbps
Width : 640 pixels
Height : 272 pixels
Display aspect ratio : 2.35:1
Frame rate mode : Constant
Frame rate : 25.000 fps
Color space : YUV
Chroma subsampling : 4:2:0
Bit depth : 8 bits
Scan type : Progressive
Bits/(Pixel*Frame) : 0.165
Stream size : 620 MiB (88%)
Title : Mafiaking
Language : Hindi
Default : Yes
Forced : No

Audio
ID : 2
Format : MPEG Audio
Format version : Version 1
Format profile : Layer 3
Mode : Joint stereo
Mode extension : MS Stereo
Codec ID : A_MPEG/L3
Codec ID/Hint : MP3
Duration : 2h 3mn
Bit rate mode : Constant
Bit rate : 80.0 Kbps
Channel(s) : 2 channels
Sampling rate : 32.0 KHz
Compression mode : Lossy
Stream size : 70.7 MiB (10%)
Title : Mafiaking
Writing library : LAME3.99r
Language : Hindi
Default : Yes
Forced : No